Most viewed

Norge sex dating apps

What is Included japanesse voksne kontaktannonser in Each Membership Level Standard Create a profile, upload photos, take Matching Test, search/browse profiles and matches, send cards, post to Go on a Date VIP Unlimited communication with other members, access to Megaphone feature, highlighted profile


Read more

Essex motorveier kontakter

Offentliggjøringen kom i kjølvannet av en sak i New York Times.Select Share or embed map.Before you can get transit directions, your local transit agency needs to add their route info to Google Maps.Ja, det kan den, i alle fall for kortere turer.Også dette


Read more

Flørte lokale datingside

Dette satsingsområdet tar sikte på å bidra med økt kunnskap om sammenhengene mellom nye organisasjonsformer, arbeidsorganisering, arbeidsvilkår og tjenestekvalitet.Er stedet, hvor millioner af singler mødes online i søgningen efter sjove dates i deres lokale område.Utgangspunktet for sussex skolen termin 13 14 Strukturmeldingen er


Read more

Beste venn halskjede for 4




beste venn halskjede for 4

Used interface : Native Win32 interface for Win NT 2000.
Read offset correction : 103, overread into Lead-In and Lead-Out :.
Wav Peak level.5 Extraction speed.5 X Range quality 100.0 Test CRC EE6D62B8 Copy CRC EE6D62B8 Copy OK No errors occurred AccurateRip summary Track lokale slappers falske 1 not present in database Track 2 not present in database Track 3 not present in database Track 4 not.
57.08 4:19., range status and errors.Test CRC 105026A1, copy CRC 105026A1, copy.Exe Additional command line options : -7 -V -T "Dateyear" -T "Genregenre" -T "commentripped by sewerok" source TOC of the extracted CD Track Start Length Start sector End sector :00.00 3:27.Additional command line options : -7 -V -T "Dateyear" -T "Genregenre" -T "commentripped by sewerok" source.Command line compressor : C:Program Files (x86)Exact Audio CopyFlacflac.TOC of the extracted CD, track Start Length Start sector End sector :00.00 2:18.No errors occurred AccurateRip summary Track 1 not present in database Track 2 not present in database Track 3 not present in database Track 4 not present in database Track 5 not present in database Track 6 not present in database Track 7 not present.



Wav Peak level.6 Extraction speed.1 X Range quality 100.0 Test CRC B2093573 Copy CRC B2093573 Copy OK No errors occurred AccurateRip summary Track 1 not present in database Track 2 not present in database Track 3 not present in database Track 4 not.
Selected bitrate : 768 kBit/s, quality : High, add ID3 tag :.
Peak level.8, extraction speed.5 X, range quality 100.0.Range status and errors Selected range Filename E:Schiller - registrert sex offenders i union county nc Zeitreise - Das Beste Von Schiller 2016(Limited Ultra Deluxe Edition)CD 02Schiller - Zeitreise - Das Beste Von Schiller.Range status and errors Selected range Filename E:Schiller - Zeitreise - Das Beste Von Schiller 2016(Limited Ultra Deluxe Edition)CD 04 (Bonus CD)Schiller - Zeitreise - Das Beste Von Schiller.Used output format : User Defined Encoder.Exact Audio Copy.0 beta 4 from.December 2016, 13:17 Schiller / Zeitreise - Das Beste Von Schiller Used drive : matshitabd-CMB UJ172 S Adapter: 1 ID: 0 Read mode : Secure Utilize accurate stream : Yes Defeat audio cache : Yes Make use of C2 pointers : No Read offset correction.




[L_RANDNUM-10-999]
Sitemap